скачать порно бесплатно на X-Tor.info

На нашем сайте, вы можете скачать новое и качественное порно. Скачивайте порно торрент бесплатно, в любое время у нас. Заходите чаще, и мы всегда сможем порадовать вас новыми порно видео, и порно фильмами! Порно бесплатно, без регистрации, и без смс!
x-tor.info
Меню
Секс видеочат
Предлагаем общаться в лучшем бесплатном Секс видеочате. Дайте волю своим сексуальным фантазиям.

Все видеочаты

 
 

Jenny Lopes-Sex On The Leopard Couch

 
 
28-10-2012, 15:00 | Просмотров: 3843
Jenny Lopes-Sex On The Leopard Couch

Just another video of me sucking cock and getting my tight little eighteen year old pussy fucked! I probably get fucked in every position possible in this movie, so you're really not going to want to miss this one. I wonder if I'll be this addicted to dick for the rest of my life? Or if I'm just super horny because I just turned 18 and started having sex? Not sure, but for now, I will keep on suckin and fuckin!



Categories: young, xxx, tiny tits, teen, shaved pussy, pussy licking, Petite, panties, oral, nice tits, natural tits, latina pussy, latin girl, horny, fucking, fantasy, brunette, brown hair, Boy/Girl, blowjob, bald pussy


Video
ID : 1
Format : WMV2
Codec ID : WMV2
Codec ID/Info : Windows Media Video 8
Description of the codec : wmv2
Duration : 23mn 8s
Bit rate : 1 937 Kbps
Width : 854 pixels
Height : 480 pixels
Display aspect ratio : 16:9
Frame rate : 29.000 fps
Bit depth : 8 bits
Bits/(Pixel*Frame) : 0.163
Stream size : 321 MiB (93%)

Audio
ID : 2
Format : WMA
Format version : Version 2
Codec ID : 161
Codec ID/Info : Windows Media Audio
Description of the codec : Windows Media Audio V8
Duration : 23mn 8s
Bit rate : 64.0 Kbps
Channel(s) : 2 channels
Sampling rate : 44.1 KHz
Bit depth : 16 bits
Stream size : 10.6 MiB (3%)

Скачать торрент


 
 
 
Поиск по трекеру
Топ порно
Порно чат
Смотрите в режиме реального времени порно чат онлайн. Русские порно видео чаты.

Все видеочаты